Télécharger tv Torrent Français

Amistad [1997] BRRip XviD - CODY


Type:
Vidéos > Films
Fichiers:
6
Taille:
1.39 GiB (1495318279 Bytes)
Transféré:
2014-05-06 19:30:07 GMT
Seeders:
1
Leechers:
3
Info Hash:
ED605E12E34FF43DC70BDEB623BE3638DA6481FD
General
Complete name : Amistad [1997] BRRip XviD - CODY.avi
Format : AVI
Format/Info : Audio Video Interleave
File size : 1.39 GiB
Duration : 2h 34mn
Overall bit rate : 1 288 Kbps
Writing application : VirtualDubMod 1.5.10.3 | www.virtualdub-fr.org || (build 2550/release)
Writing library : VirtualDubMod build 2550/release

Video
ID : 0
Format : MPEG-4 Visual
Format profile : Advanced Simple@L5
Format settings, BVOP : 1
Format settings, QPel : No
Format settings, GMC : No warppoints
Format settings, Matrix : Default (H.263)
Codec ID : XVID
Codec ID/Hint : XviD
Duration : 2h 34mn
Bit rate : 1 151 Kbps
Width : 720 pixels
Height : 384 pixels
Display aspect ratio : 1.85:1
Frame rate : 23.976 fps
Color space : YUV
Chroma subsampling : 4:2:0
Bit depth : 8 bits
Scan type : Progressive
Compression mode : Lossy
Bits/(Pixel*Frame) : 0.174
Stream size : 1.24 GiB (89%)
Writing library : XviD 73

Audio
ID : 1
Format : MPEG Audio
Format version : Version 1
Format profile : Layer 3
Codec ID : 55
Codec ID/Hint : MP3
Duration : 2h 34mn
Bit rate mode : Constant
Bit rate : 128 Kbps
Channel count : 2 channels
Sampling rate : 48.0 KHz
Compression mode : Lossy
Stream size : 142 MiB (10%)
Alignment : Aligned on interleaves
Interleave, duration : 42 ms (1.00 video frame)
Interleave, preload duration : 504 ms
Writing library : LAME3.99r
Encoding settings : -m s -V 4 -q 2 -lowpass 17 -b 128

Audio language : English

IMDB link: http://www.imdb.com/title/tt0118607/

Subtitles included : Romanian

Please seed at least 1,5:1. This way this torrent has a chance to survive !

Thanks. Enjoy !!

french torrent, torrent francais


Liste des fichiers:
 
Amistad [1997] BRRip XviD - CODY.avi1.39 GiB
Cover.jpg697.89 KiB
Amistad [1997] BRRip XviD - CODY.srt100.36 KiB
Info_by_Cody.txt5.45 KiB
Torrent downloaded from Thepiratebay.txt36 B
Torrent downloaded from H33t.txt27 B
 
Torrents en relation:
 
Caligula 1979 The Imperial Edition BRRip XviD AC3-PsiX
The Lunchbox 2013 BRRip x264 HORiZON-ArtSubs
Trust 1990 BDRip XviD AC3-PsiX
Titanikos 1997 with Greek subs
Adventure Time S06E03E04 James II - The Tower WEB-DL XviD MP3

N.B: French Torrent est un moteur de recherche de torrents français qui vous permer de télécharger films, séries, applications... Ce site ne peut être utilisé pour télécharger toute contenu illégal. L'utilisation de BitTorrent est légale, cependant, l'utiliser pour télécharger du contenu avec copyright ne l'est pas....
ContactSupprimer un torrent   © 2012 French Torrent – Tous droits réservés.