Télécharger tv Torrent Français

Amistad [1997] 720p BRRip H264 AC3 - CODY


Type:
Vidéos > Films HD
Fichiers:
6
Taille:
2.78 GiB (2981666138 Bytes)
Transféré:
2014-05-06 19:21:58 GMT
Seeders:
1
Leechers:
1
Info Hash:
9FB2352FBD2B20BDB87423F0234CCA5E83CCCEFA
General
Complete name : Amistad [1997] 720p BRRip H264 AC3 - CODY.mp4
Format : MPEG-4
Format profile : Base Media
Codec ID : isom
File size : 2.78 GiB
Duration : 2h 34mn
Overall bit rate mode : Variable
Overall bit rate : 2 569 Kbps
Encoded date : UTC 2014-04-25 03:54:44

Video
ID : 1
Format : AVC
Format/Info : Advanced Video Codec
Format profile : High@L4.1
Format settings, CABAC : Yes
Format settings, ReFrames : 8 frames
Codec ID : avc1
Codec ID/Info : Advanced Video Coding
Duration : 2h 34mn
Bit rate mode : Variable
Bit rate : 2 120 Kbps
Maximum bit rate : 20.0 Mbps
Width : 1 280 pixels
Height : 688 pixels
Display aspect ratio : 1.85:1
Frame rate mode : Constant
Frame rate : 23.976 fps
Color space : YUV
Chroma subsampling : 4:2:0
Bit depth : 8 bits
Scan type : Progressive
Bits/(Pixel*Frame) : 0.100
Stream size : 2.29 GiB (82%)
Writing library : x264 core 130 r2273 b3065e6
Encoding settings : rc=2pass
Color primaries : Generic film
Transfer characteristics : BT.709
Matrix coefficients : BT.709

Audio
ID : 2
Format : AC-3
Format/Info : Audio Coding 3
Mode extension : CM (complete main)
Format settings, Endianness : Big
Codec ID : ac-3
Duration : 2h 34mn
Bit rate mode : Constant
Bit rate : 448 Kbps
Channel count : 6 channels
Channel positions : Front: L C R, Side: L R, LFE
Sampling rate : 48.0 KHz
Bit depth : 16 bits
Compression mode : Lossy
Stream size : 496 MiB (17%)


Audio language : English

IMDB link: http://www.imdb.com/title/tt0118607/

Subtitles included : Romanian

Please seed at least 1,5:1. This way this torrent has a chance to survive !

Thanks. Enjoy !!

french torrent, torrent francais


Liste des fichiers:
 
Amistad [1997] 720p BRRip H264 AC3 - CODY.mp42.78 GiB
Cover.jpg697.89 KiB
Amistad [1997] 720p BRRip H264 AC3 - CODY.srt100.36 KiB
Info_by_Cody.txt7.74 KiB
Torrent downloaded from Thepiratebay.txt36 B
Torrent downloaded from H33t.txt27 B
 
Torrents en relation:
 
Caligula 1979 The Imperial Edition BRRip XviD AC3-PsiX
First Anal Quest - Sexy Anal Slut From A Night Club HD 720p
Walk Of Shame 2014 720p WEBRIP x264 AC3 SiMPLE
Gang Related S01E01 Pilot 720p WEB-DL DD5 1 H 264-NTb
First Anal Quest - Anal Xmas Celebration HD 720p

N.B: French Torrent est un moteur de recherche de torrents français qui vous permer de télécharger films, séries, applications... Ce site ne peut être utilisé pour télécharger toute contenu illégal. L'utilisation de BitTorrent est légale, cependant, l'utiliser pour télécharger du contenu avec copyright ne l'est pas....
ContactSupprimer un torrent   © 2012 French Torrent – Tous droits réservés.